Cue File Generator

Cue generator is a online tool to create cue files from PSX bins or ISOs. Just rename the filename of the. Timeline Hotkeys. Generate some crazy and unique sentences with the random sentence generator on this page! There are about 130,000 different sentences you can generate in the statement list and the question list of sentences combined. CUE Audio maintains the right to retain all aggregated and de-identified data in whatever form in perpetuity. +) Norwegian language supported. Timeline Event Tab. Just bought Plex, lifetime pass, and I love how it organizes my movie collection. One of them is a “. Message-ID: 1571048047. DCue ~ Discogs Cue Sheet Generator. 64 ID:4x+jc8D/. Point to the. were I to mount the image it would be d. Add cues to the cue list can be done in a few ways. In WebVTT, cue identifiers are optional. Reverse route. CueMaster can retrieve CD track info from the free online album database FreeDB, or recover cuepoints from the MP3 file itself. Is there a way, or an alternative, to generate cue file form discog? Thank you for the interest. A webpage to generate Cue files for your PlayStation bin tracks. CueMaster can retrieve CD track info from the free online album database FreeDB, or recover cuepoints from the MP3 file itself. “Save” to your desired location. Regular price $739. Feel free to try it ;). When you click Pick a Random item button, the tool will submit all text line by line to our server. Route Simplification. 7c CueMaster is the best freeware cue sheet creator. PERFORMER "Van Der Graaf Generator" TITLE "World Record SHM-CD" FILE "Van Der Graaf Generator - World Record SHM-CD. rar:2021/06/10(木) 16:54:53. cue is a text file like this: FILE "NameOfTheBin. Some context: Cue is a project originally started by Marcel van Lohuizen who previously was part of BCL (Borg Config Lang) at Google. Toast isn't going to burn a VCD or a SVCD from a bin/cue file. Optionally, you can also have ImgBurn compare it against a given image file to ensure the actual data is correct. cue", and are simple plain text files. Create Cue Sheets for your programmes in seconds and for FREE, simply by uploading your EDL file. My last post on CUE here yesterday will also help any POA rep ,VSO , or claimant understand what a CUE is and how a re -open can gain a better EED, as explained in that. Generated file tags are automatically filled with informations extracted from "CUE" files (informations can be modified on-the-fly). cue file you will need to use a third party app like CueListTool. ♥ Complete the outfit with rings, I have layered flannel between the front and back cotton fabric which gives you a stable runner without the heaviness of batting. Pregenerated Files. 1 pc KAMUI Snooker Black Laminated Billiard CUE TIP,CUE TIP 1 pc KAMUI Snooker Black Laminated Billiard, 11 mm) : Sports & Outdoors,: KAMUI Snooker Black Laminated Billiard CUE TIP - 1 pc (Medium,Warranty and FREE shipping,Enjoy 365 Day Returns,Save even more with Free Pickup + Discount. 593 [名無し]さん(bin+cue). 10-02-03 -- Posted Cue Sheet Generator v1. Here are a few of things I can think of off the top of my head to try: Try creating the cue sheet manually: Click Action, Create CUE Sheet, Multiple WAV Files With Gaps. Reply #6 – 2021-02-24 19:58:33. Cue Maker. proto files being generated). , accented letters), the BDP-105 will not be able to find the audio file in the directory. The cue points are configured in Studio with the cue point Metadata property holding a semicolon delimited list of strings that contain information for the CTA. Close the file once all the information has been saved to the file. bin" BINARY TRACK 04. PHP C Extension To Decode ECM File And Generate Cue File - phpecm2cue. This will now create the bin/cue files for use with PCSXbox. shntool cue *. CueListTool is a free yet comprehensive application that allows you to create and edit CUE files for and from your uncompressed audio files (WAV/WV). To move towards a target, the cell uses chemotaxis. (not sure if this is necessary, but sega cuemaker would not make a cue until I did this. MD5 & SHA1 Hash Generator For File Generate and verify the MD5/SHA1 checksum of a file without uploading it. SQIANG Easy Cue is a powerful Editor for cue file. cue This generates a CUE file joined. Player example This sample and associated code is provided as a guide for your production development. cue file should be in the kB for file size, the. Center for Undergraduate Engineering Education (CUE2) (p) 256. Unix Timestamp Converter. Toast will create both for you automatically. The codes can be outputted to the screen or to a downloadable CSV file. Cue sheets are stored as plain text files and commonly have a. Description: ISO-Generator. Entity Conversion. CueMaster 1. flac tracks of single album (it lists filenames instead of song names written in metadata). Generate a great number of leads and increase your sales. Download the full ISO / BIN and CUE files from the Internet. PHP C Extension To Decode ECM File And Generate Cue File - phpecm2cue. Explore the different types here. Cue sheets are especially useful for DJ mixes where the resulting audio file is one long mp3. cue will be used. Exporting Tags without Cue Points. Import a Still. QR-Code-Generator. 8 Ball Pool is a classic online billiard game developed by Miniclip in 2010. The tool chooses nouns, verbs and adjectives from a hand-picked list of thousands of the most evocative words and generates a random sentence to help inspire you. Here are some common things you may see. The first section in this part of tcw20. Here is the story. Picture tracer. PPV-Racks on the Rocks Classic May 12-16th W. Also, CUE data could become your single source of truth, and you could simply generate all your configuration from it in whatever format is required. 海外アップローダー総合★215 598 :[名無し]さん(bin+cue). CueMaster is the best freeware cue sheet creator. CDBurnerXP will automatically split audio files according to the information in the CUE file and add them to the compilation. The ::cue CSS pseudo-element matches WebVTT cues within a selected element. In addition to split FLAC files, Bigasoft FLAC Converter can also convert the FLAC files to popular audio formats like M4A, WAV, 24 bit WAV, MP3 up. Copy your. 3) Drag a cue button (from the tool bar) to where in the list you want to insert it. Message-ID: 848970611. bin to the name of the BIN file you are trying to burn. For rekordbox , tracklist generation happens automatically for. Ships from and sold by Home Improvement Co. Load a track into the Traktor deck, and you’ll see the 8 cue points light up. #1044: Generate a list of translation contributors per release cycle #1045: Make timestamp formats follow ISO 8601 for dates #1046: Make/core Component Pages: hide tickets reported by component maintainers in unresponded-to tickets list. xml says: [quote] Creating a new file release First edit the file VERSION, and make it say what you are about to release. CDRWIN first introduced cue sheets, which are now supported by many optical disc authoring applications and media players. To mount a BIN/CUE or IMG/CUE file you can use the 'cdemu' kernel module. 8 Ball Pool is a classic online billiard game developed by Miniclip in 2010. Your files will not be uploaded. STEP 2: Copy the file over to your iDevice using any of the file managers mentioned above or skip this step if you're downloading from your iDevice. FILE "07 - Brought to Book. Here's how you can convert it to the proper format: Open a Terminal window. Works under: Windows 10 / Windows 8. There are 1000s of ways to make money in the markets, so when it comes to trading, Forever In Profit gives you. Manage Smart Account. The cue file now looks like this: FILE "GAME. Cue Sheet Generator creates both the Cue file and the associated WAV files automatically based upon your layout. Download the latest version from Software Informer. Since VISTA does not like applications writing data to the Program Files folders, the Development Team moved these entries to a more accessible. CueBlox is a set of tools that allow you to create and consume datasets from YAML or Markdown files. log file should have the same name as the. bin file should be the larger size. Media Cue Inspector. ChurchBells Church Bell Tower carillon software chimes time, Hymns Carols Harmonious Bells; MultiTone Generator A multi oscillator. Are there any tool or tools that can generate a CUE file from dvd video_ts structure. After 5-10 seconds, the ISO image of that folder will be created and. Zahlensystem Konverter. There are also other export posibilities like csv or xml. CUE file contains tracks information, while the corresponding BIN file contains real track data. FILE – A path to a file containing audio data, and to which subsequent commands apply. Compute CRC-32 from a file. Select the Cue file and it will burn ALL of the files correctly. CueMaster can retrieve CD track info from the free online album database FreeDB, or recover cuepoints from the MP3 file itself. CUE is a new data language, inspired by Go, that promises to make JSON, YAML, and other annoying formats much easier to work with. Skip to content. Here's how you can convert it to the proper format: Open a Terminal window. Get a RWGPS PDF cue sheet (for club members who join the RWGPS club account): Click mileage to go to RWGPS page; Click "Print PDF" (upper left of page) If you see "Print" and not "Print PDF", sign in to RWGPS. log file, but your. bin” BINARYTRACK 01 MODE1/2352INDEX 01 00:00:00This video is for EDUCATION PURPOSES ONLY. mp4 -acodec copy -vcodec copy -f mov output_file. For a cue, the only option is Remove this Autoload. ( obsolete) The tail; the end of a thing; especially, a tail-like twist of hair worn at the back of the head; a queue. Runs on: Win95, Win98, WinME, WinXP, WinNT 4. Snooker Cue Tip Clamp Standard Wooden Cue Tip Clamp Repair Tool with Coil File for Snooker Cues 10MM & 11MM, we would be happy to set up a custom listing for you. Web site created using create-react-app. The way to generate an e-signature for a PDF file on Android Get more for Lighting Cue Sheet Pdf Small claims court notice of attachment employer notice of attachment employer guamselfhelp form. An optional second parameter is the output file name, if omitted the input file name, sans extension, with. Most of the time the download will contain the ISO and the audio files in ogg. Generate cues files from multiple bins and download straight to your computer. Just select the bin file, select it's date type, and generate! Cue maker is a free program that creates cue-sheet files, for bin Image files. Configure PDF (or keep default settings) Click "Generate PDF" at bottom of page; Check your email and print PDF file. It features type checking, validation, and an excellent set of tooling. Here's my Dungeon Master - Theron's Quest. DCue ~ Discogs Cue Sheet Generator. STEP 3: Using Filza or iFile, browse to where you saved the downloaded. All WebVTT files start with the line “WebVTT,” while SRT files don’t use an SRT distinction and instead begin with a “1” for the first caption sequence. Save the trimmed wav and then save the cue. cue' file as a command line argument. Timestamps is the easiest way to generate a timestamped tracklist for a DJ mix. Create your own free website, get a domain name, fast hosting, online marketing and award-winning 24/7 support. Download and unzip the cue maker. bin+cue to. Also available for Android. cue file for psx games. #1044: Generate a list of translation contributors per release cycle #1045: Make timestamp formats follow ISO 8601 for dates #1046: Make/core Component Pages: hide tickets reported by component maintainers in unresponded-to tickets list. As we’ve seen, sometimes a cue isn’t good because it doesn’t offer enough detail or the right detail. cue file to the name in the database and you’re good to go and saved yourself a lot of work. Because of this, you should be able to open the file via the cue file. Thanks for carrying out some more tests. The Autism Tool Kit contains resources to help children, teens, and adults with autism interact successfully at home, in school, and in the workplace. INDEX 01 00:00:00. 55 Read & write CUE sheet files. License music and sound effects today from AudioMicro. When considering the weight, you need to make sure that the cue is well seasoned and is strong enough. Backup your current cue-Files. flac > joined. mp3splt Open Source mp3 and ogg splitter bchunk BinChunker for Unix / Linux, converts. m3u” file exported from iTunes, making all those changes to the file and even using a Hex editor to delete those three characters is a rather time-consuming and difficult way to do it. go, so it safe to add such files in these directories to further tighten down definitions. Added: Option to generate output path based on a custom format string. bin file with missing. CUE sheet is a special file that contains information about tracks in a continuous audio file. Point to the. This utility will allow you to generate CUE sheets for Sega CD games. Any vet rep or VSO who can read, would be able to understand what a valid CUE is by reading this case, and be able to determine if you should file or re open in that regard. We connect a deep understanding of education with the power of technology to continuously push the boundaries of learning. Figure 4−1 shows a flow diagram for a typical point detection automated architecture system. The time-tested layout works just like two decks and a mixer so whether you’re a seasoned professional or just honing your skills, Total Control is easy to learn and capable of advanced technique. This is equivalent to running an uninstall. CUE Sheet Library v. 3) is the first CD image file Editing tool in the world, which allows you to open, edit, create, extract, and convert ISO files, and make bootable ISO files. proto extension with. Zahlensystem Konverter. When you click Pick a Random item button, the tool will submit all text line by line to our server. CUE Sheet Software Informer. DFF file with an accompanying cue sheet. Now that you have the Custom Cue tool selected, click on the route where you want the Cue. You mount it with Z:\>IMGMOUNT E C:\Images\MyImage. Cue points are invisible markers in a video file which can be used to trigger external events such as synchronizing graphics, subtitles, etc; providing navigation. Find sources: "Comparison of disc image software" - news · newspapers · books · scholar · JSTOR (December 2011) ( Learn how and when to remove this template message) This article is a comparison of notable software applications that can access or manipulate disk image files. Open the program and browse to the directory where the. Removing this track should reset all subsequent tracks (track number and Index times) based on the second track Index time. An ISO file can only contain one data track, however bin / cue file can contain multiple tracks, and can contain data, audio, or video tracks. Burned from the cue file, cdrwin. DCue is available for both Windows and Linux and is written in C++ with no external library dependencies. bin file with missing. For a specified folder including all sub-folders, it creates a cue sheet for each wav or flac file found. Snooker Cue Tip Clamp Standard Wooden Cue Tip Clamp Repair Tool with Coil File for Snooker Cues 10MM & 11MM, we would be happy to set up a custom listing for you. Open the Playlists tab in the Music section of iTunes. six519 / unecm. Top free cue club serial key downloads. Creating a cue sheet for a CD has never been so easy. To convert audio streams to MP3 the application uses. flac > joined. Install from Source. proto file (including those transitively depended upon by the. Complete a security verification below to download your file: と出て落とせないんだけどどうすれば落とせるのでありますか? 580 : [名無し]さん(bin+cue). It will merge the BINs in a temp folder and generate a PBP together with (uncompressed) audio tracks. 0 Content-Type: multipart/related; boundary. Roderick Castillo. +) Can auto-detect and work with more burning software, including CopyToDVD and BlindWrite. cue ' appended to it. I just found out that ImgBurn can create CUE files. But you absolutely are right on that it doesn't do much more than a bash one-liner. CueMaster is the best freeware cue sheet creator. Your files will not be uploaded. Current version: v1. Mounting a CUE/BIN-Pair as volume. You can also specify the symbol that separates the input words and also change the symbol that separates the shuffled words in the output. BIN / CUE file is an image file for compact disc, which can exactly represent a compact disc. Extracting a CHD to a more accessible format, like IMG for hard disk drive backups or a BIN & CUE combination for CD backups, has a point only if you’re going to use those files in a different emulator that doesn’t support the CHD format. You can read that and use linux tools to do what it is telling nero to do. Figure 4−1 shows a flow diagram for a typical point detection automated architecture system. Download Sega CUE Maker. wodim: Audio tracks must be at least 705600 bytes and a multiple of 2352. cue file extention to. 99 Only 20 left in stock - order soon. 01-20-2012, 07:43 PM #7. The cue points are configured in Studio with the cue point Metadata property holding a semicolon delimited list of strings that contain information for the CTA. More about this CD image creator, editor and converter. You can open up the cue file in notepad and have a look. An amazing timesaving, free tool, which will transform the way you compile Cue Sheets from now on!. Cue Maker. Cue Point Generator. It is typically prepared by the production company and delivered to ASCAP and lists the following pieces of information: the way in which the music was. bin" BINARY TRACK 1 MODE2/2352 INDEX 1 00:00:00It's is actually called a cue sheet. So gals and guys, keep faith with CUE. The file disk. wav" WAVE INDEX 01 00:00:00 TRACK 09 AUDIO TITLE "Go" PERFORMER "Van der Graaf Generator" ISRC GBBLY1602009 FLAGS DCP INDEX 00 07:53:48 FILE. A program to easily generate cue sheets for CD images with compressed or raw (wav) audio tracks, usable, for example, in DosBox A cue sheet, or cue file, is an ASCII (plain text) file that specifies how the tracks of a compact disc. CUE Splitter is a freeware tool that splits a single big audio file, mostly an album or a compilation, into the relative individual tracks, using the informations contained in the associated "CUE Sheet" file. Playback controls. css file, if you selected Yes to the CSS tooling option. New tool – DAT to HyperList Creator. With just an Android phone or tablet or a Chromebook that supports Google Play, you can create and run simple audio designs for theatre, dance, and other live entertainment. The Autism Tool Kit contains resources to help children, teens, and adults with autism interact successfully at home, in school, and in the workplace. Upload multiple files with the file dialog or by dragging and dropping files here. Double-click on the CUE file and choose to open it in Notepad. If you would like to use a different material for the Spec pass simply overwrite this file with another Material. Explore the different types here. It may or may not work, though, depending on whether your bin file is a good dump or not. The average pool cue should weigh between 16 and 21 ounces. Native Instruments is a leading manufacturer of software and hardware for computer-based audio production and DJing. cue thingy in with them. 2" in its REM COMMENT directive. Create Cue Sheets for your programmes in seconds and for FREE, simply by uploading your EDL file. Cue Creator. What programs do you use to tag and generate the CUE file? I recently found out that I can use a type of text file called a CUE sheet for marking the track locations, artist, and title for a recorded mix. iso)" option. Export the LUT. Jump to: navigation. I just created one for an ISO+mp3 image and compared it to the Sega CUE Maker version and it appeared to be correct. This can be used to style captions and other cues in media with VTT tracks. How? By using text/templates to render any file we wish. For rekordbox , tracklist generation happens automatically for. com> Subject: Exported From Confluence MIME-Version: 1. One of them is a “. 27718 Generates a cue file for bin files that do not have one. cue is a simple text file. ♥ Complete the outfit with rings, I have layered flannel between the front and back cotton fabric which gives you a stable runner without the heaviness of batting. We created GoldWave to do everything from voice and stream recording and editing to sophisticated audio processing, restoration, enhancements, analysis, and conversions. But my own FLAC files work fine at any bit depth or sample rate. Keep the quotation marks. Generate cue files for multiple bin files in a directory or directory tree (recursively). Create a CUE file (if you don't have one). However, there is 1 FREE tool that does it all. CUE domain Provide feedback. December 24, 2017 Version 1. Would be nice, when extracting cd as a whole image, if the regions and tracks could be named after the actual tracks on the cd and/or a separate file (like a cue file) created. Real Time Video Tracer. Keywords: cue, create cue file, cue sheet creator, cue-sheet, cue generator, cue sheet generator, create cue sheet, what is a cue file, CUEgenerator, CUEgenerator online Mar 26, 2021 Alexa Rank: 3288344. rar :2021/05/31(月) 19:29:10. Open the Playlists tab in the Music section of iTunes. In the right side panel, click PRINT PDF MAP & CUE SHEET. A ROM is composed of a single file; It can be zipped or not (Prefer zipped for Lakka) But some systems are more complex. Free APE to MP3 Converter is a free program that converts APE files (Monkey's Audio) to MP3 or WAV format. cue file that matches up to the tracks. Suppose that you have a large MP3 file with a whole album of some band. Snooker Cue Tip Clamp Standard Wooden Cue Tip Clamp Repair Tool with Coil File for Snooker Cues 10MM & 11MM, we would be happy to set up a custom listing for you. cue", and are simple plain text files. Convert PS3-Folder-Format-Games 2 PS3-ISO-Format-Games (split big-files will be joined) ISO-Extractor. JSON in CUE. Cue sheets are hard to find these days. chd extension for each disc of the game with an appropriate. log file, but your. "An embedded cue file is basically a playlist thats inside an audio file that points to different parts of that same file. Effective June 1, 2018, ADJ Products will be providing sales and product support for COMPU CUE. Hi, lately I’ve received a bunch of FLAC lossless audio. Peoria, Illinois $11,000 Total Added. Click SAVE to add this cue to the cuesheet. The IMG is the actual data, kind of like the BIN file in a CUE/BIN set. 0 X-UnMHT-Save. it's called "createCue" and is a command-line tool, which does: Automatically or manually generate a cue-File for every PS1 Game-Image Backup your current cue-Files The script wil. ♥ Complete the outfit with rings, I have layered flannel between the front and back cotton fabric which gives you a stable runner without the heaviness of batting. cue sheet using metadata from multiple. My last post on CUE here yesterday will also help any POA rep ,VSO , or claimant understand what a CUE is and how a re -open can gain a better EED, as explained in that. Save the file to the same folder as the BIN file. Reorder tracks with a simple drag and drop interface. For each use of an offering in a project, please generate a usage record. It turns out you only have to prefix the URL on Mixcloud with api to access the raw data of a specific element. It can process almost all CD image files including ISO and BIN files. The preferred format for CD images is BIN+CUE. Create at least one adjustment layer, and make your color corrections as desired. Word Counter: Count the number of words in your text. Cue really shines with configuration management and solves a lot of fundamental problems we have with current options. chd extension for each disc of the game with an appropriate. - Individual Tracks and Whole Area (Stereo/Multichannel) conversion (PCM output) or extraction (DSD output) mode with CUE file support. I have provided one above. Generating with Cue. Is there a way, or an alternative, to generate cue file form discog? Thank you for the interest. Version Pro Evolution Soccer 2017. Its simple interface allows you to open any BIN file and generate its corresponding CUE file in one single step. Simply import a high-res frame from your project (RAW or otherwise) into Photoshop. It also supports multi-disc PBPs. Production schedules and timber harvest. CUE Splitter is a freeware tool that split a single big audio track, mostly an album or a compilation, into the relative individual audio tracks, using informations contained in the associated "CUE" file. It can edit tags of most state-of-the-art audio formats, rename files based on the tag information, generate tag information from file names, and extract text from tags and filenames. Create Cue Sheets for your programmes in seconds and for FREE, simply by uploading your EDL file. It may or may not work, though, depending on whether your bin file is a good dump or not. Added: Tool to correct the filenames within CUE sheets based on the audio files present in the same folder. Here is a Perl script to generate *. An amazing timesaving, free tool, which will transform the way you compile Cue Sheets from now on!. Note that if the ripped PS1 game is divided into different audio tracks, you should. As a noun, the word cue references the game stick. Choose the folder that contains all the files, and click Generate Cue. The name of the output file is created by replacing the. Frame editor New. DCue will be fixed soon! HedKandiLover It's a pity Discogs has changed its API. The primary purpose of WebVTT files is to add text overlays to a. CD2 , etc so that EmulationStation will list only the. This is in response to RetroPie 4. cue, CUE sheet, etc. HTML Compression: Compress HTML contents into a smaller. Cue Maker. CUE file contains tracks information, while the corresponding BIN file contains real track data. Cue file generator 18. The charts below show local government expenditure in 2010 and 2015. DCue is an open source command line tool for creating audio cue sheet files using the massive release database at Discogs. wav 0 See also here for a simple script to generate such a file. I am intending to use the program to extract tracks from mix cd's that doesn't start and stop exactly at the track index points (i. Browse our comprehensive knowledge base or get support for any of the Serato products. So, since release I simply removed the files (ARK\ShooterGame\Content\PrimalEarth\Sound\SFX\Structures\HiTechPW_gen_generator_start_Cue. Here is the story. Last active Nov 10, 2016. How? By using text/templates to render any file we wish. I can create a CUE file using Foobar but that doesn't give me a separate CUE sheet file - at least I haven't found the option yet - I can then use CUETools to create a CUE sheet file. x, Windows2000. FLAC files with CUE? Plex Media Server Desktops & Laptops. shntool cue *. The complementary “. m3u playlist file to enable you to change discs by the above method. Hi, Is it possible to generate a. If you have the CUE sheet and BIN file, you can grab bin2boot to make it into an autoboot image (CDI to be precise). The builtin encoding/json. Added: Option to preserve HTOA when outputting gaps appended CUE sheets. Beetle-PSX only loads cue files. Put a check next to the option INCLUDE CLUB OPTION. It can process almost all CD image files including ISO and BIN files. Latest updates on everything CUE Sheet Software related. CUE Splitter. The system reads the cue file which points to the game data in the bin file. This bypasses needing to first click Custom. Cue sheet file entries will contain the full path. My last post on CUE here yesterday will also help any POA rep ,VSO , or claimant understand what a CUE is and how a re -open can gain a better EED, as explained in that. edu kaf0001@uah. See full list on cue. I have lots of image (Sega Saturn Roms) in ccd/img/sub format. py Generates XML that can be put in the. Export the LUT. bin, although it's funny because I don't seem to need the. DSD Issue with DFF file and cue sheet. In this case the image file is a. The ::cue CSS pseudo-element matches WebVTT cues within a selected element. To avoid confusion, it is possible to exclude characters from the code generation that look-a-like on a screen (I, l, 1, |, O, 0). wav" WAVE INDEX 01 00:00:00 TRACK 08 AUDIO TITLE "Almost the Words" PERFORMER "Van der Graaf Generator" ISRC GBBLY1602008 FLAGS DCP INDEX 00 07:56:33 FILE "08 - Almost the Words. If you choose to cancel your subscription, you cannot use our offerings in new projects. Jack's carries the replacement parts you need to keep your generator running smoothly throughout the entire storm season. Thanks! kgl. Any vet rep or VSO who can read, would be able to understand what a valid CUE is by reading this case, and be able to determine if you should file or re open in that regard. General features of this free playlist generator: It comes with a quick search feature. It can be run online in the free hosting provider OnWorks for workstations. When upgrading to CUE 5. cue file with Flacon. All gists Back to GitHub Sign in Sign up Sign in Sign up {{ message }} Instantly share code, notes, and snippets. It has a very simple command line syntax and creates human-readable and universally compatible cue sheets (. rar :2021/05/31(月) 19:29:10. 593 [名無し]さん(bin+cue). Conventional flash cards are physical cards that list a question or problem on one side, and the answer or solution on the reverse. CueMaker scans directories and creates. cue file that matches up to the tracks. BIN and so on. Finally start Nero and choose the Burn Image option. Check the tracks and start to burn. Let me know if this works. 0 and 3pin DMX in/out connections. deb file and tap on it. It can be done on a few different file formats, but MP3 is what interests me the most. I just found out that ImgBurn can create CUE files. org and try to generate a cue file for it. Convert CloneCD disk image to Cue sheet description. We are cue makers. Install from Source. Education and Career Development. It may contain the song name, performer, and length of each track on the disc. In the Autoload Times column you can set fade in, fade out and delay times for the autoloaded playback. Anyone care to test this out? If it works, that would make Sega CUE Maker obsolete. Re: looking for a free cue sheet editor. This project consists of two applications. Make a text file in notepad named the same as your. Here is what you need to do: 1) Download vcdtoolsX and unpack the. If you've ever built a website with a static site generator like Hugo, this will be familiar. To date CUE-101 has demonstrated a favorable tolerability profile in the monotherapy trial and continues to generate encouraging emerging data pertaining to its pharmacokinetic, or PK, and pharmacodynamic, or PD, profile, as well as anti-tumor clinical activity. For convenience, it also supports importing Ogg-Vorbis, AIFF files, and FLAC files, though it internally converts them to 16-bit format PCM files. It senses extracellular signalling molecules, chemoattractants (e. bin opens up and reads all the correct information in any disc image application, such as poweriso, imgburn, etc w/o having a. It is a niche tool that is used to generate different types of QR Codes. (not sure if this is necessary, but sega cuemaker would not make a cue until I did this. cue present. The cue file now looks like this: FILE "GAME. While unnecessary if you're going to use this file on your Mac, the created CDR file won't work on a PC. Cue sheets are hard to find these days. XML file off of your. The available CUE commands are as follows, and there is simply no way to specify an offset (only gaps/pauses before and after a track). CVE-66584. CueMaster can retrieve CD track info from the free online album database FreeDB, or recover cuepoints from the MP3 file itself. Thank you!. Complete a security verification below to download your file: と出て落とせないんだけどどうすれば落とせるのでありますか? 580 : [名無し]さん(bin+cue). A music cue sheet lists theme music and background cues associated specifically with those productions, as well as independent songs which are also included in the soundtrack. Select your movie clip or clips in the Library panel. Web site created using create-react-app. If the game doesn’t load properly, it could be that it was a bad rip. Download the best freeware cue sheet editor and start creating your cue sheets in a few minutes. CUE is a new data language, inspired by Go, that promises to make JSON, YAML, and other annoying formats much easier to work with. 1622616440549. js CUE file generator - from Hindenburg chapter text, for cue files used to import to Podcast chapters. A CUE file is a text file that defines the way tracks are organized on compact discs and super-audio CDs (SACDs). 送料無料 北欧 デザイン チェア おしゃれ モダン 。MENU Flip Around スツール. When upgrading to CUE 5. Generate cues files from multiple bins and download straight to your computer. General features of this free playlist generator: It comes with a quick search feature. Cue generator is a online tool to create cue files from PSX bins or ISOs. Leave space between each one. Generates a cue file for bin files that do not have one. CUE looks like this: FILE "image-name. cue filename matches the name in the database. Check the tracks and start to burn. Since ISO can only contain pure data, the image has to be in the CUE/BIN format. Cue sheets commonly have a ". CUERipper is a utility for extracting digital audio from CDs, an open-source alternative to EAC. Convertio - Easy tool to convert files online. Timeline Event Tab. Whether I am turning a square round, taking a final pass on a fully assembled cue, or just taking a clean up cut on a newly installed joint collar, I use CueCut to generate the GCode file for it. SoX is a cross-platform (Windows, Linux, MacOS X, etc. FREE software for commercial. cue file which means some information such INDEX and ISRC is lost I tried it on a folder of individual. Make sure your cue file is pointing to the correct file name. The Lighting Application Suite includes innovative and intuitive tools to design simple to complex lighting and video shows, position lighting fixtures in a project plan, and configure e:cue and external devices in the control system. Pick a file on your computer and the CRC-32 value will immediately be calculated. It can be run online in the free hosting provider OnWorks for workstations. Picture tracer. After selecting a data type, press Generate: Finally, a window will pop-up saying your. Complete a security verification below to download your file: と出て落とせないんだけどどうすれば落とせるのでありますか? 580 : [名無し]さん(bin+cue). Saying the COVID-19 vaccines are experimental and they don’t want to be “guinea pigs,” the 117 employees argued in court that it’s unlawful for their employers to require them to take the shots. So gals and guys, keep faith with CUE. CueMaster can retrieve CD track info from the free online album database FreeDB, or recover cuepoints from the MP3 file itself. The result set can be sorted alphabetically / numerically. Low (Reduce by 25%) Medium (Reduce by 50%) High (Reduce by 75%) Customize: 999 pts. The ogg file is in the root of the bin directory (i. 21 ID:QA3GeFeq 海外サイトやエロサイトは経験値がものを言うからねぇ そのうち画面構成やURLの時点で怪しいと判断つくようになるし頑張れ. CUE file contains tracks information, while the corresponding BIN file contains real track data. SQIANG Easy Cue is a powerful Editor for cue file. The cue file now looks like this: FILE "GAME. Cue really shines with configuration management and solves a lot of fundamental problems we have with current options. iso" BINARY TRACK 01 AUDIO INDEX 01 00:00:00 TRACK 02 MODE1/2352 PREGAP 00:03:00. cue file, saving you precious time. Just upload an Ableton Live, FL Studio or rekordbox file, and get timestamps instantly. If you have knowledge to share, want to establish yourself as an expert, or make connections, please jump in and answer questions. In addition, you can insert a cue sheet entry anywhere along the route by selecting "Add to Cue Sheet" on the right hand side of the screen while in "Edit" mode, and then clicking on the route at the point to. A cue sheet is a schedule of the music contained in a film or television program and is the essential document for ASCAP to distribute royalties for musical performances in audio-visual media. Easily generate cue sheets for CD images with compressed audio tracks. The primary purpose of WebVTT files is to add text overlays to a. Keywords: cue, create cue file, cue sheet creator, cue-sheet, cue generator, cue sheet generator, create cue sheet, what is a cue file, CUEgenerator, CUEgenerator online Mar 26, 2021 Alexa Rank: 3288344. Sponsored results by. proto extension with. PERFORMER "Van Der Graaf Generator" TITLE "World Record SHM-CD" FILE "Van Der Graaf Generator - World Record SHM-CD. Spider Pool Cue. However, you are lucky if you have a small supplement to your MP3 file - a CUE sheet. Here's the. But my own FLAC files work fine at any bit depth or sample rate. Also, multiple RARs can now be selected when performing rar=>cue/bin=>mpg or rar=>bin=>mpg : January 31, 2005: A Vietnamese beta language file has been posted in the Downloads section. com, hydrogenaud. Just select the bin file, select it's date type, and generate! Cue maker is a free program that creates cue-sheet files, for bin Image files. CueMaster can retrieve CD track info from the free online album database FreeDB, or recover cuepoints from the MP3 file itself. Included in the Autism Tool Kit are downloadable PDFs and links to autism resources web sites that we have found particularly helpful. Here are some common things you may see. CueMaster is the best freeware cue sheet creator. cue ( plural cues ) ( sports, billiards, snooker, pool) A straight tapering stick used to hit the balls in various games. * Generated file tags are automatically filled with informations extracted from "CUE" files (informations can be modified on-the-fly). The SUB file is a copy of the subdata track; in an audio CD this is usually used for timing data, so when you fast forward. Step 1: Open MP3 file to split. chds, you can create a. # FFmpeg -i input_file. Because of this, you should be able to open the file via the cue file. Open the program and browse to the directory where the. Last Edit : 2011-04-10 16:23:28 by Reng. At the core is a tool that aggregates similar files into collections of data. The emulator mednafen works fine with a cue sheet and an iso. Any burning program which supports the CUE file format will then create the exact disc you have laid out. The CUE file is the index file associated with FLAC file, if there is no CUE file, it can't select the song when playing FLAC file. cdlx file, which is Audition's internal CD layout format. proto files being generated). converts Audacity label files to. Go to "Cue Sheet" - "Create Cue Sheet", which will open up the CUE sheet window. Available in both Hebrew and English, its simple interface allows you to open any BIN File and generate its corresponding Cue File in one single step. ogg" MP3 TRACK 02 AUDIO INDEX 01 03:00:00. Mounting a BIN/CUE or IMG/CUE file. 3) Drag a cue button (from the tool bar) to where in the list you want to insert it. A webpage to generate Cue files for your PlayStation bin tracks. Converts your videos into DVD, SVCD, or VCD formats, ready to be burned to disc. deb file and tap on it. IMG files using the. Copy link to clipboard. 0 the default application path stays the same and the new application configuration, plug-in, skins, and support files are copied to C:\MyDocuments\CUE 5. CUE file or something like it except instead of generating it while recording, it's created while broadcasting. Easily generate cue sheets for CD images with compressed audio tracks. The preferred format for CD images is BIN+CUE. LilyPond sheet music text editor Top Searches. Most times these two files are placed into a folder and then compressed with popular methods such as "zip" and "7z" to make it easier to download as a single download instead of 2 or more items. Open the CUE file in Notepad to rename the ISO as well. Alternatively, is is possible to create a. It is useful when working with with something like a CD that has been ripped into a single audio file (wav, flac, etc) and cue sheet. A comprehensive DVD and VCD creation tool with video conversion capabilities. Nero) to burn the continuous mix with tracks to disc Just unzip the attachment and run it on your PC. Recursive Cue Creator is a Java application to create cue sheets for use with cMP² (or other players supporting cue sheets). XML file off of your. txt files for Morse code practice programs. bin files don’t have to be the same. Another approach is to convert the image to iso. rar 2021/06/10(木) 12:09:38. Username Generator is a free tool based on an unique algorithm which allows you to generate an endless number of random user names that would be suitable for use on the Web. cue file will always be generated together with a. Cornell uses about 18% for its summary area. Change filename. A cue sheet is generally used in conjunction with either extracting from or burning to CD. The cue to label conversion expects a cue sheet in a similar structure to that generated by the label to cue conversion. Capitalize the First letter of Sentences; HTML Table Generator: Generate the code for a simple HTML table. Write(\"My First Binary File\") GO binarystream. Program license Demo. Code: Select all 2. LD2K Classic Abstract Generator. Built-in Logger. flac > joined. Easily generate cue sheets for CD images with compressed audio tracks. Fix issue with inactive company designation preventing login when other companies are active. cue file which means some information such INDEX and ISRC is lost I tried it on a folder of individual. And while this is going to be Cue’s primary use case for most people, you can actually generate pretty much anything. The vue create command has a number of options and you can explore them all by running: vue create --help. wav CueSplitter Splits MP3 files into separate files using CUE file information. It supports MusicBrainz and freeDB metadata databases, AccurateRip and CTDB. Keywords: Bass Booster Software - Mp3 Equalizer - Treble Booster Software. cue", and are simple plain text files. For example, when a CD's complete audio content has been ripped to a single file, a. At the core is a tool that aggregates similar files into collections of data. Executing. pdf) or read book online for free. Since VISTA does not like applications writing data to the Program Files folders, the Development Team moved these entries to a more accessible. The names of the. Frame editor. cue sheets made by recent EAC versions), CUETools can determine a possible range for the data track length. Type in a word or two from the dance name, choreographer last name, rhythm, or a combination of them. 2) - detect various ISO and GDI problems, and can fix some of them ISO Checker Screenshots: System manager - quick overview of all your systems, based on the last per system scan (img 4. mp3splt Open Source mp3 and ogg splitter bchunk BinChunker for Unix / Linux, converts. I could use IAT to convert them in iso format, but i don't know how to revert iso images in cue/bin format. Roderick Castillo. Afterwards click 'OK' button. J ust make sure after you select the next button that your window looks like the window shown below :. STEP 3: Using iFile or Filza, browse to where you saved the downloaded. Make flash cards tailored to your needs without using a single piece of paper or card stock. cue in notepad. Copy Link to Clipboard. Just rename the filename of the.